+ bajarlibrosgratis.org »  :::: Bollywood Zone » Bollywood Movies (Original Rips) » High Resolution Movies
|- Agneepath 2012 Hindi BluRay 1080p HEVC x265 DTS...Team Telly [4.27 GB] [Google Drive ]


Agneepath 2012 Hindi BluRay 1080p HEVC x265 DTS...Team Telly [4.27 GB] [Google Drive ]

0 Members and 1 Guest are viewing this topic.

February 12, 2018, 11:24:58 PM
  • Newbie
  • **
  • Topic Author
  • Thank You: 3
  • Reputation: 2
  • Activity:
    0.8%
  • Country: bd
  • Posts: 4
  • Topics: 2
  • Join Date: Dec 2017
  • ShareSpark Member

Agneepath 2012  Hindi BluRay 1080p HEVC x265 DTS...Team Telly [4.27 GB] [Exclusive] [S_N]




Storyline:

A young boy's father is lynched before his eyes; fifteen years later he returns home for revenge...

Genres:Action, Crime, Drama 
Country: India
Language: Hindi
Release Date:26 January 2012 (Pakistan)


Media Information:


Complete name               :Agneepath 2012  Hindi BluRay 1080p HEVC x265 DTS...Team Telly

Format                      : Matroska
Format version              : Version 4 / Version 2
File size                   : 4.27 GiB
Duration                    : 2h 54mn
Overall bit rate            : 3 509 Kbps
Movie name                  : RSY Team Telly


Video
ID                          : 1
Format                      : HEVC
Format/Info                 : High Efficiency Video Coding
Codec ID                    : V_MPEGH/ISO/HEVC
Duration                    : 2h 54mn
Bit rate                    : 1 930 Kbps
Width                       : 1 920 pixels
Height                      : 816 pixels
Display aspect ratio        : 2.35:1
Frame rate mode             : Constant
Frame rate                  : 24.000 fps
Bits/(Pixel*Frame)          : 0.051
Stream size                 : 2.35 GiB (55%)
Title                       : RSY Team Telly
Language                    : English
Default                     : Yes
Forced                      : No

Audio
ID                          : 2
Format                      : DTS
Format/Info                 : Digital Theater Systems
Mode                        : 16
Format settings, Endianness : Big
Codec ID                    : A_DTS
Duration                    : 2h 54mn
Bit rate mode               : Constant
Bit rate                    : 1 509 Kbps
Channel(s)                  : 6 channels
Channel positions           : Front: L C R, Side: L R, LFE
Sampling rate               : 48.0 KHz
Bit depth                   : 24 bits
Compression mode            : Lossy
Stream size                 : 1.84 GiB (43%)
Title                       : RSY Team Telly
Default                     : Yes
Forced                      : No







:ss:

















:download:










CREDIT GOES TO ORIGINAL UPLOADER

ENJOY UR DAY

Share this topic on FacebookShare this topic on GoogleShare this topic on MySpaceShare this topic on TwitterShare this topic on Yahoo

« Last Edit: February 15, 2018, 01:00:32 AM by Rockstar1111 »


Thanks given by:


February 12, 2018, 11:42:13 PM
Reply #1
  • Senior Member
  • ***
  • Thank You: 0
  • Reputation: 6
  • Activity:
    56%
  • Country: au
  • Posts: 267
  • Topics: 0
  • Join Date: Oct 2017
  • ShareSpark Member

February 13, 2018, 04:32:21 PM
Reply #2
  • Semi Newbie
  • **
  • Thank You: 0
  • Reputation: 0
  • Activity:
    4.6%
  • Country: in
  • Posts: 21
  • Topics: 0
  • Join Date: Dec 2017
  • ShareSpark Member

February 13, 2018, 10:04:32 PM
Reply #3
  • Newbie
  • **
  • Topic Author
  • Thank You: 3
  • Reputation: 2
  • Activity:
    0.8%
  • Country: bd
  • Posts: 4
  • Topics: 2
  • Join Date: Dec 2017
  • ShareSpark Member

Tags:
 

Related Topics





Back to top