+ ShareSpark.net »  :::: Bollywood Zone » Bollywood Movies (Pre Releases)
|- Tiger Zinda Hai (2017) - 1CD - Desi- Rip - Hindi - x264 - MP3 - Mafiaking - M2Tv - 700 MB


New Promotions of ShareSpark Member's (January 2018) New
Tag users in topic | Receive notifications when you are tagged

Tiger Zinda Hai (2017) - 1CD - Desi- Rip - Hindi - x264 - MP3 - Mafiaking - M2Tv - 700 MB

0 Members and 1 Guest are viewing this topic.

December 24, 2017, 10:01:43 AM
  • Addic7ed
  • Elite Member
  • ****
  • Topic Author
  • Thank You: 195
  • Reputation: 18
  • Activity:
    37%
  • Country: in
  • Posts: 443
  • Topics: 444
  • Join Date: Dec 2016
  • ShareSpark Member





-:: Information ::-

General
Complete name : Tiger Zinda Hai (2017) - 1CD - Desi-Rip - Hindi - x264 - MP3 - Mafiaking - M2Tv.mkv
Format : Matroska
Format version : Version 4 / Version 2
File size : 703 MiB
Duration : 2 h 32 min
Overall bit rate : 646 kb/s
Movie name : Tiger Zinda Hai (2017) - 1CD - Desi-Rip - Hindi - x264 - MP3 - Mafiaking - M2Tv

Video
ID : 1
Format : AVC
Codec ID : V_MPEG4/ISO/AVC
Duration : 2 h 32 min
Bit rate : 580 kb/s
Width : 656 pixels
Height : 288 pixels
Frame rate mode : Constant
Frame rate : 23.976 (24000/1001) FPS
Stream size : 631 MiB (90%)
Title : Mafiaking
Language : Hindi
Default : Yes
Forced : No

Audio
ID : 2
Format : MPEG Audio
Codec ID/Hint : MP3
Duration : 2 h 32 min
Bit rate mode : Constant
Bit rate : 64.0 kb/s
Channel(s) : 2 channels
Stream size : 69.7 MiB (10%)
Title : Mafiaking
Language : Hindi
Default : Yes
Forced : No

-:: ScreenShots ::-







-:: DOWNLOAD ::-








Share this topic on FacebookShare this topic on GoogleShare this topic on MySpaceShare this topic on TwitterShare this topic on Yahoo

« Last Edit: December 24, 2017, 03:06:11 PM by RoBi007 »



December 25, 2017, 11:40:47 AM
Reply #1
  • Elite Member
  • ***
  • Thank You: 0
  • Reputation: 51
  • Activity:
    1%
  • Posts: 452
  • Topics: 0
  • Join Date: Nov 2012
  • ShareSpark Member

Tags:
 

Related Topics





Back to top