+ ShareSpark.net »  :::: Bollywood Zone » Bollywood Movies (Pre Releases)
|- Firangi (2017) - 1CD - Desi-Rip - New Source - Hindi - x264 - MP3 - Mafiaking - M2Tv - 700 MB


New Promotions of ShareSpark Member's (January 2018) New
Tag users in topic | Receive notifications when you are tagged

Firangi (2017) - 1CD - Desi-Rip - New Source - Hindi - x264 - MP3 - Mafiaking - M2Tv - 700 MB

0 Members and 1 Guest are viewing this topic.

December 31, 2017, 07:04:57 AM
  • Addic7ed
  • Elite Member
  • ****
  • Topic Author
  • Thank You: 194
  • Reputation: 18
  • Activity:
    36.8%
  • Country: in
  • Posts: 442
  • Topics: 443
  • Join Date: Dec 2016
  • ShareSpark Member





-:: Information ::-

General
Complete name : Firangi (2017) - 1CD - Desi-Rip - New Source - Hindi - x264 - MP3 - Mafiaking - M2Tv.mkv
Format : Matroska
Format version : Version 4 / Version 2
File size : 707 MiB
Duration : 2 h 32 min
Overall bit rate : 646 kb/s
Movie name : Firangi (2017) - 1CD - Desi-Rip - New Source - Hindi - x264 - MP3 - Mafiaking - M2Tv

Video
ID : 1
Format : AVC
Codec ID : V_MPEG4/ISO/AVC
Duration : 2 h 32 min
Bit rate : 580 kb/s
Width : 656 pixels
Height : 288 pixels
Frame rate mode : Constant
Frame rate : 29.970 (30000/1001) FPS
Stream size : 634 MiB (90%)
Title : Mafiaking
Language : Hindi
Default : Yes

Audio
ID : 2
Format : MPEG Audio
Codec ID/Hint : MP3
Duration : 2 h 32 min
Bit rate mode : Constant
Bit rate : 64.0 kb/s
Channel(s) : 2 channels
Stream size : 70.0 MiB (10%)
Title : Mafiaking
Language : Hindi
Default : Yes

-:: ScreenShots ::-







-:: DOWNLOAD ::-








Share this topic on FacebookShare this topic on GoogleShare this topic on MySpaceShare this topic on TwitterShare this topic on Yahoo

« Last Edit: January 03, 2018, 09:29:46 PM by RoBi007 »



Tags:
 

Related Topics





Back to top