+ ShareSpark.net »  :::: Bollywood Zone » Bollywood Movies (Original Rips)
|- Duplicate 1998 DvDRip x264 AC3 - Hon3y


New Promotions of ShareSpark Member's (January 2018) New
Tag users in topic | Receive notifications when you are tagged

Duplicate 1998 DvDRip x264 AC3 - Hon3y

0 Members and 1 Guest are viewing this topic.

January 08, 2018, 08:59:03 PM
  • Global Moderator
  • Legend Member
  • *****
  • Topic Author
  • Thank You: 4633
  • Reputation: 913
  • Activity:
    100%
  • Country: in
  • Posts: 3653
  • Topics: 3069
  • Join Date: Jan 2014
  • ıllıllı ѕмoĸιng ιѕ good ғor нealтн ıllıllı :)
Duplicate 1998 DvDRip x264 AC3 - Hon3y



Quote

Format                                   : Matroska
Format version                           : Version 4 / Version 2
File size                                : 1.45 GiB
Duration                                 : 2 h 45 min
Overall bit rate                         : 1 258 kb/s

Video
ID                                       : 1
Format                                   : AVC
Format/Info                              : Advanced Video Codec
Format profile                           : [email protected]
Format settings                          : CABAC / 8 Ref Frames
Format settings, CABAC                   : Yes
Format settings, RefFrames               : 8 frames
Codec ID                                 : V_MPEG4/ISO/AVC
Duration                                 : 2 h 45 min
Bit rate                                 : 1 032 kb/s
Width                                    : 720 pixels
Height                                   : 344 pixels
Display aspect ratio                     : 2.093
Frame rate mode                          : Constant
Frame rate                               : 23.976 (24000/1001) FPS
Color space                              : YUV
Chroma subsampling                       : 4:2:0
Bit depth                                : 8 bits
Scan type                                : Progressive
Bits/(Pixel*Frame)                       : 0.174
Stream size                              : 1.19 GiB (82%)
Language                                 : English
Default                                  : Yes
Forced                                   : No

Audio
ID                                       : 2
Format                                   : AC-3
Format/Info                              : Audio Coding 3
Codec ID                                 : A_AC3
Duration                                 : 2 h 45 min
Bit rate mode                            : Constant
Bit rate                                 : 224 kb/s
Channel(s)                               : 2 channels
Channel positions                        : Front: L R
Sampling rate                            : 48.0 kHz
Frame rate                               : 31.250 FPS (1536 SPF)
Bit depth                                : 16 bits
Compression mode                         : Lossy
Stream size                              : 265 MiB (18%)
Service kind                             : Complete Main
Default                                  : Yes
Forced                                   : No


:ss:








:download:

Quote










File Leeched & Uploaded From




Don't walk as you are king, walk as you don't care who the king is....!!
Never argue with an idiot. They drag you down to their level and then beat you with experience?

Share this topic on FacebookShare this topic on GoogleShare this topic on MySpaceShare this topic on TwitterShare this topic on Yahoo




Don't walk as you are king, walk as you don't care who the king is....!!

Thanks given by:


January 08, 2018, 09:24:33 PM
Reply #1
  • Devoted Member
  • **
  • Thank You: 0
  • Reputation: 0
  • Activity:
    14.4%
  • Country: np
  • Posts: 126
  • Topics: 0
  • Join Date: Jul 2016
  • ShareSpark Member
Old Is Gold..............
 :yahoo:
« Last Edit: January 08, 2018, 09:25:31 PM by special26 »

Tags:
 

Related Topics





Back to top