+ ShareSpark.net »  :::: Bollywood Zone » Bollywood Movies (Original Rips)
|- The House Next Door (2017) x264 WEBHD Rip DD5.1 Audio Team Jio Exclusive


New Promotions of ShareSpark Member's (January 2018) New
Tag users in topic | Receive notifications when you are tagged

The House Next Door (2017) x264 WEBHD Rip DD5.1 Audio Team Jio Exclusive

0 Members and 1 Guest are viewing this topic.

January 10, 2018, 12:47:15 AM
  • Global Moderator
  • Legend Member
  • *****
  • Topic Author
  • Thank You: 4633
  • Reputation: 913
  • Activity:
    100%
  • Country: in
  • Posts: 3653
  • Topics: 3069
  • Join Date: Jan 2014
  • ıllıllı ѕмoĸιng ιѕ good ғor нealтн ıllıllı :)
The House Next Door (2017) x264 WEBHD Rip  DD5.1 Audio Team Jio Exclusive



Quote
Format : Matroska
Format version : Version 2
File size : 933 MiB
Duration : 2 h 14 min
Overall bit rate : 967 kb/s
Encoded date : UTC 2018-01-09 16:18:07
Writing application : mkvmerge v19.0.0 ('Brave Captain') 64-bit
Writing library : libebml v1.3.5 + libmatroska v1.4.8
Video
ID : 1
Format : AVC
Format/Info : Advanced Video Codec
Format profile : [email protected]
Format settings : CABAC / 5 Ref Frames
Format settings, CABAC : Yes
Format settings, ReFrames : 5 frames
Codec ID : V_MPEG4/ISO/AVC
Duration : 2 h 14 min
Bit rate : 774 kb/s
Width : 720 pixels
Height : 304 pixels
Display aspect ratio : 2.40:1
Frame rate mode : Constant
Frame rate : 24.000 FPS
Color space : YUV
Chroma subsampling : 4:2:0
Bit depth : 8 bits
Scan type : Progressive
Bits/(Pixel*Frame) : 0.147
Stream size : 746 MiB (80%)
Writing library : x264 core 152 r2851 ba24899
Default : Yes
Forced : No
Audio
ID : 2
Format : E-AC-3
Format/Info : Enhanced Audio Coding 3
Codec ID : A_EAC3
Duration : 2 h 14 min
Bit rate mode : Constant
Bit rate : 192 kb/s
Channel(s) : 6 channels
Channel positions : Front: L C R, Side: L R, LFE
Sampling rate : 48.0 kHz
Frame rate : 187.500 FPS (256 SPF)
Compression mode : Lossy
Stream size : 185 MiB (20%)
Language : Hindi
Service kind : Complete Main
Default : Yes
Forced : No

:ss:







:download:

Quote












File Leeched & Uploaded From




Don't walk as you are king, walk as you don't care who the king is....!!
Never argue with an idiot. They drag you down to their level and then beat you with experience?

Share this topic on FacebookShare this topic on GoogleShare this topic on MySpaceShare this topic on TwitterShare this topic on Yahoo

« Last Edit: January 10, 2018, 12:59:36 AM by Rάήνίјάч1234 »



Don't walk as you are king, walk as you don't care who the king is....!!

Thanks given by:


Tags:
 

Related Topics





Back to top