+ ShareSpark.net »  :::: Bollywood Zone » Bollywood Movies (Original Rips)
|- Tumhari Sulu 2017 720p WEB-HD x264 ESub-TEAM Moviezworldz


New Promotions of ShareSpark Member's (January 2018) New
Tag users in topic | Receive notifications when you are tagged

Tumhari Sulu 2017 720p WEB-HD x264 ESub-TEAM Moviezworldz

0 Members and 1 Guest are viewing this topic.

January 14, 2018, 03:41:13 PM
  • Team SSX
  • Devoted Member
  • ***
  • Topic Author
  • Thank You: 25
  • Reputation: 21
  • Activity:
    40.8%
  • Country: fr
  • Posts: 194
  • Topics: 109
  • Join Date: Dec 2017
  • ShareSpark Member
Tumhari Sulu 2017 720p WEB-HD x264 ESub


General
Format : Matroska
Format version : Version 4 / Version 2
File size : 1.25 GiB
Duration : 2 h 14 min
Overall bit rate : 1 329 kb/s

Video
ID : 1
Format : AVC
Format/Info : Advanced Video Codec
Format profile : [email protected]
Format settings : CABAC / 4 Ref Frames
Format settings, CABAC : Yes
Format settings, ReFrames : 4 frames
Codec ID : V_MPEG4/ISO/AVC
Duration : 2 h 14 min
Bit rate : 1 200 kb/s
Width : 1 280 pixels
Height : 720 pixels
Display aspect ratio : 16:9
Frame rate mode : Constant
Frame rate : 25.000 FPS
Color space : YUV
Chroma subsampling : 4:2:0
Bit depth : 8 bits
Scan type : Progressive
Bits/(Pixel*Frame) : 0.052
Stream size : 1.13 GiB (90%)
Writing library : x264 core 148 r2708 86b7198
Default : Yes
Forced : No

Audio
ID : 3
Format : AAC
Format/Info : Advanced Audio Codec
Format profile : LC
Codec ID : A_AAC-2
Duration : 2 h 14 min
Bit rate : 128 kb/s
Channel(s) : 2 channels
Channel positions : Front: L R
Sampling rate : 44.1 kHz
Frame rate : 43.066 FPS (1024 SPF)
Compression mode : Lossy
Stream size : 123 MiB (10%)
Language : Hindi
Default : Yes
Forced : No

Text
ID : 2
Format : UTF-8
Codec ID : S_TEXT/UTF8
Codec ID/Info : UTF-8 Plain Text
Duration : 2 h 12 min
Bit rate : 62 b/s
Count of elements : 2082
Stream size : 60.5 KiB (0%)
Default : Yes
Forced : No















Code: [Select]
http://www.indishare.me/vx2sbplkq69k
http://uptobox.com/4w3njjk1yalr
http://bdupload.info/6cc6ze471gjg
http://openload.co/f/ERk51ZYHoyA/
http://filecloud.io/wy16d3muk

Share this topic on FacebookShare this topic on GoogleShare this topic on MySpaceShare this topic on TwitterShare this topic on Yahoo

« Last Edit: January 14, 2018, 04:53:53 PM by ★Complex★ »


Thanks given by:


Tags:
 

Related Topics

  Subject / Started by Replies Last post
1 Replies
233 Views
Last post January 13, 2018, 05:00:07 PM
by Abhisona
4 Replies
534 Views
Last post January 14, 2018, 08:41:53 PM
by a2zRG
0 Replies
207 Views
Last post January 14, 2018, 09:56:30 AM
by PSYCHO
0 Replies
85 Views
Last post January 14, 2018, 03:36:46 PM
by ★Complex★
0 Replies
123 Views
Last post January 15, 2018, 09:28:50 AM
by Abhisona




Back to top