+ ShareSpark.net »  :::: Bollywood Zone » Bollywood Movies (Original Rips)
|- Bank Chor 2017 720p Esub HD Hindi GOPISAHI


New Promotions of ShareSpark Member's (January 2018) New
Tag users in topic | Receive notifications when you are tagged

Bank Chor 2017 720p Esub HD Hindi GOPISAHI

0 Members and 1 Guest are viewing this topic.

January 14, 2018, 07:19:55 PM
  • Addic7ed
  • Hot Member
  • ****
  • Topic Author
  • Thank You: 284
  • Reputation: 67
  • Activity:
    58.8%
  • Country: in
  • Posts: 568
  • Topics: 529
  • Join Date: Oct 2013
  • ShareSpark Member

Format                         : Matroska
Format version                 : Version 4 / Version 2
File size                      : 507 MiB
Duration                       : 2 h 0 min
Overall bit rate               : 589 kb/s
Movie name                     : Bank Chor 2017

Video
Format                         : AVC
Codec ID                       : V_MPEG4/ISO/AVC
Duration                       : 2 h 0 min
Bit rate                       : 500 kb/s
Width                          : 1 280 pixels
Height                         : 532 pixels
Display aspect ratio           : 2.40:1
Frame rate mode                : Constant
Frame rate                     : 23.976 (24000/1001) FPS
Stream size                    : 430 MiB (85%)
Writing library                : x264

Audio
Format                         : AAC
Duration                       : 2 h 0 min
Bit rate                       : 86.9 kb/s
Channel(s)                     : 6 channels
Channel positions              : Front: L C R, Side: L R, LFE
Sampling rate                  : 44.1 kHz
Frame rate                     : 43.066 FPS (1024 SPF)
Stream size                    : 74.8 MiB (15%)
Language                       : Hindi

Text
Language                       : English




Share this topic on FacebookShare this topic on GoogleShare this topic on MySpaceShare this topic on TwitterShare this topic on Yahoo



Thanks given by:


Tags:
 

Related Topics





Back to top